Las Flores de la Guerra BDrip, 1080p, AC3 2.0 Cast DTS Eng Subs. ES EN, Drama, 2013, Online Descargar Gratis DVDRip latino

Las Flores de la Guerra BDrip, 1080p, AC3 2.0 Cast DTS Eng Subs. ES EN, Drama, 2013, Online Descargar Gratis DVDRip latino descargar full HD, 1 link, dvdrip, HDRip, por putlocker, mediafire, MEGA, y torrent, rmvb, en español latino, castellano, subtitulada, AVI


Título original
War Flowers
Año
2012
País
[Estados Unidos] Estados Unidos
Director
Serge Rodnunsky
Guión
Serge Rodnunsky
Música
Evan Evans
Fotografía
Andrew Mclean, Serge Rodnunsky
Reparto
Christina Ricci, Tom Berenger, Jason Gedrick, Cory Scarborough, Gabrielle Popa, Brian Balzerini
Productora
Unity Studios
Género
Drama | Guerra de Secesión
Sinopsis
Durante la Guerra de Secesión, Sarabeth espera junto a su hija a que su marido regrese del frente. Un día encuentran a un yanki malherido y mientras lo curan van descubriendo que bajo el uniforme enemigo hay un buen hombre. (FILMAFFINITY)

Mediainfo:


Código:
General
Format : Matroska
Format version : Version 4 / Version 2
File size : 11.8 GiB
Duration : 2h 22mn
Overall bit rate : 10.1 Mbps
Movie name : Las Flores de la Guerra 1080p
Encoded date : UTC 2013-07-17 12:50:42
Writing application : mkvmerge v6.1.0 (‘Old Devil’) built on Mar 2 2013 14:32:37
Writing library : libebml v1.3.0 + libmatroska v1.4.0

Video
ID : 1
Format : AVC
Format/Info : Advanced Video Codec
Format profile : [email protected]
Format settings, CABAC : Yes
Format settings, ReFrames : 4 frames
Codec ID : V_MPEG4/ISO/AVC
Duration : 2h 22mn
Bit rate : 9 100 Kbps
Width : 1 920 pixels
Height : 816 pixels
Display aspect ratio : 2.35:1
Frame rate mode : Constant
Frame rate : 23.976 fps
Color space : YUV
Chroma subsampling : 4:2:0
Bit depth : 8 bits
Scan type : Progressive
Bits/(Pixel*Frame) : 0.266
Stream size : 9.70 GiB (83%)
Title : Las Flores de la Guerra 1080p
Writing library : x264 core 132 r2310 76a5c3a
Encoding settings : cabac=1 / ref=5 / deblock=1:-1:-1 / analyse=0x3:0x133 / me=hex / subme=5 / psy=1 / psy_rd=1.00:0.00 / mixed_ref=1 / me_range=16 / chroma_me=1 / trellis=1 / 8x8dct=1 / cqm=0 / deadzone=21,11 / fast_pskip=1 / chroma_qp_offset=0 / threads=12 / lookahead_threads=3 / sliced_threads=0 / nr=0 / decimate=1 / interlaced=0 / bluray_compat=0 / constrained_intra=0 / bframes=8 / b_pyramid=1 / b_adapt=1 / b_bias=0 / direct=3 / weightb=1 / open_gop=0 / weightp=2 / keyint=250 / keyint_min=25 / scenecut=40 / intra_refresh=0 / rc_lookahead=40 / rc=2pass / mbtree=1 / bitrate=10000 / ratetol=1.0 / qcomp=0.60 / qpmin=0 / qpmax=69 / qpstep=4 / cplxblur=20.0 / qblur=0.5 / ip_ratio=1.40 / aq=1:1.00
Language : Spanish
Default : Yes
Forced : Yes

Audio #1
ID : 2
Format : AC-3
Format/Info : Audio Coding 3
Mode extension : CM (complete main)
Format settings, Endianness : Big
Codec ID : A_AC3
Duration : 2h 22mn
Bit rate mode : Constant
Bit rate : 320 Kbps
Channel(s) : 2 channels
Channel positions : Front: L R
Sampling rate : 48.0 KHz
Bit depth : 16 bits
Compression mode : Lossy
Delay relative to video : 7s 200ms
Stream size : 326 MiB (3%)
Title : Las Flores de la Guerra 1080p
Language : Spanish
Default : Yes
Forced : Yes

Audio #2
ID : 3
Format : DTS
Format/Info : Digital Theater Systems
Mode : 16
Format settings, Endianness : Big
Codec ID : A_DTS
Duration : 2h 22mn
Bit rate mode : Constant
Bit rate : 1 509 Kbps
Channel(s) : 6 channels
Channel positions : Front: L C R, Side: L R, LFE
Sampling rate : 48.0 KHz
Bit depth : 24 bits
Compression mode : Lossy
Delay relative to video : 11ms
Stream size : 1.50 GiB (13%)
Title : Las Flores de la Guerra 1080p
Language : English
Default : No
Forced : No

Text #1
ID : 4
Format : UTF-8
Codec ID : S_TEXT/UTF8
Codec ID/Info : UTF-8 Plain Text
Title : Las Flores de la Guerra 1080p
Language : Spanish
Default : Yes
Forced : Yes

Text #2
ID : 5
Format : UTF-8
Codec ID : S_TEXT/UTF8
Codec ID/Info : UTF-8 Plain Text
Title : Las Flores de la Guerra 1080p
Language : Spanish
Default : No
Forced : No

Capturas:







Descarga(Uploaded.to + cloudzer.net):

Uploaded.to:


Código:
http://***********.net/file/c5ta44at/Las%20Flores%20De%20La%20Guerra%201080p.mkv.7z.001

http://***********.net/file/xnenrlhf/Las%20Flores%20De%20La%20Guerra%201080p.mkv.7z.002

http://***********.net/file/m1p24vut/Las%20Flores%20De%20La%20Guerra%201080p.mkv.7z.003

http://***********.net/file/twnvpet8/Las%20Flores%20De%20La%20Guerra%201080p.mkv.7z.004

http://***********.net/file/lhoizxjl/Las%20Flores%20De%20La%20Guerra%201080p.mkv.7z.005

http://***********.net/file/cba0yezz/Las%20Flores%20De%20La%20Guerra%201080p.mkv.7z.006

http://***********.net/file/rm3d5fcg/Las%20Flores%20De%20La%20Guerra%201080p.mkv.7z.007

http://***********.net/file/ey3rt55p/Las%20Flores%20De%20La%20Guerra%201080p.mkv.7z.008

http://***********.net/file/6tb61dpi/Las%20Flores%20De%20La%20Guerra%201080p.mkv.7z.009

http://***********.net/file/h8tif80k/Las%20Flores%20De%20La%20Guerra%201080p.mkv.7z.010

http://***********.net/file/qtz76k4q/Las%20Flores%20De%20La%20Guerra%201080p.mkv.7z.011

http://***********.net/file/45sirsy8/Las%20Flores%20De%20La%20Guerra%201080p.mkv.7z.012

http://***********.net/file/wp3utq2k/Las%20Flores%20De%20La%20Guerra%201080p.mkv.7z.013

Cloudzer:


Código:
http://cloudzer.net/file/xdagztml/Las%20Flores%20De%20La%20Guerra%201080p.mkv.7z.001

http://cloudzer.net/file/jbkx0a7n/Las%20Flores%20De%20La%20Guerra%201080p.mkv.7z.002

http://cloudzer.net/file/fk8kxgeh/Las%20Flores%20De%20La%20Guerra%201080p.mkv.7z.003

http://cloudzer.net/file/ne8o8qs1/Las%20Flores%20De%20La%20Guerra%201080p.mkv.7z.004

http://cloudzer.net/file/g8wvsgwp/Las%20Flores%20De%20La%20Guerra%201080p.mkv.7z.005

http://cloudzer.net/file/77wr8lpe/Las%20Flores%20De%20La%20Guerra%201080p.mkv.7z.006

http://cloudzer.net/file/qblzda44/Las%20Flores%20De%20La%20Guerra%201080p.mkv.7z.007

http://cloudzer.net/file/40olz0sj/Las%20Flores%20De%20La%20Guerra%201080p.mkv.7z.008

http://cloudzer.net/file/ho853hht/Las%20Flores%20De%20La%20Guerra%201080p.mkv.7z.009

http://cloudzer.net/file/5z6y6vae/Las%20Flores%20De%20La%20Guerra%201080p.mkv.7z.010

http://cloudzer.net/file/r61nwbpo/Las%20Flores%20De%20La%20Guerra%201080p.mkv.7z.011

http://cloudzer.net/file/kis7gv5c/Las%20Flores%20De%20La%20Guerra%201080p.mkv.7z.012

http://cloudzer.net/file/df5x4krn/Las%20Flores%20De%20La%20Guerra%201080p.mkv.7z.013

Las Flores de la Guerra BDrip, 1080p, AC3 2.0 Cast DTS Eng Subs. ES EN, Drama, 2013, Online Descargar Gratis DVDRip latino descargar full HD, 1 link, dvdrip, HDRip, por putlocker, mediafire, MEGA, y torrent, rmvb, en español latino, castellano, subtitulada, AVI

La ventana indiscreta 720p, Microhd, AC3 2.0 Cast Ac3 5.1 Eng, Intriga, 1954, Online Descargar Gratis DVDRip latino

La ventana indiscreta 720p, Microhd, AC3 2.0 Cast Ac3 5.1 Eng, Intriga, 1954, Online Descargar Gratis DVDRip latino descargar full HD, 1 link, dvdrip, HDRip, por putlocker, mediafire, MEGA, y torrent, rmvb, en español latino, castellano, subtitulada, AVI


Título original
Rear Window
Año
1954
Duración
112 min.
País
[Estados Unidos] Estados Unidos
Director
Alfred Hitchcock
Guión
John Michael Hayes (Historia: Cornell Woolrich)
Música
Franz Waxman
Fotografía
Robert Burks
Reparto
James Stewart, Grace Kelly, Thelma Ritter, Raymond Burr, Judith Evelyn, Wendell Corey
Productora
Paramount Pictures
Género
Intriga | Película de culto. Espionaje
Sinopsis
Un reportero fotográfico (Stewart) se ve obligado a permanecer en reposo con una pierna escayolada. A pesar de la compañía de su novia (Kelly) y de su enfermera (Ritter), procura escapar al tedio observando desde la ventana de su apartamento con unos prismáticos lo que ocurre en las viviendas de enfrente. Debido a una serie de extrañas circunstancias empieza a sospechar de un vecino cuya mujer ha desaparecido. (FILMAFFINITY)

Mediainfo:


Código:
General
Format : Matroska
Format version : Version 2
File size : 4.73 GiB
Duration : 1h 54mn
Overall bit rate : 5 997 Kbps
Encoded date : UTC 2010-05-18 21:57:24
Writing application : mkvmerge v3.4.0 (‘Rapunzel’) built on May 15 2010 09:38:20
Writing library : libebml v0.8.0 + libmatroska v0.9.0

Video
ID : 1
Format : AVC
Format/Info : Advanced Video Codec
Format profile : [email protected]
Format settings, CABAC : Yes
Format settings, ReFrames : 8 frames
Codec ID : V_MPEG4/ISO/AVC
Duration : 1h 54mn
Bit rate : 5 362 Kbps
Width : 1 232 pixels
Height : 720 pixels
Display aspect ratio : 1.711
Frame rate mode : Constant
Frame rate : 23.976 fps
Color space : YUV
Chroma subsampling : 4:2:0
Bit depth : 8 bits
Scan type : Progressive
Bits/(Pixel*Frame) : 0.241
Stream size : 3.97 GiB (84%)
Writing library : x264 core 57 svn-709C
Encoding settings : cabac=1 / ref=5 / deblock=1:-2:-1 / analyse=0x3:0x113 / me=umh / fpel_cmp=sad / subme=6 / me-prepass=0 / brdo=1 / mixed_ref=1 / me_range=16 / chroma_me=1 / trellis=1 / 8x8dct=1 / cqm=2 / deadzone=21,11 / chroma_qp_offset=0 / threads=6 / nr=0 / decimate=1 / mbaff=0 / bframes=16 / b_pyramid=1 / b_adapt=1 / b_bias=0 / direct=3 / wpredb=1 / bime=1 / keyint=250 / keyint_min=25 / scenecut=40(pre) / rc=2pass / bitrate=5121 / ratetol=1.0 / rceq=’blurCplx^(1-qComp)’ / qcomp=0.60 / qpmin=10 / qpmax=51 / qpstep=4 / cplxblur=20.0 / qblur=0.5 / ip_ratio=1.40 / pb_ratio=1.30
Language : English
Default : Yes
Forced : No

Audio #1
ID : 2
Format : AC-3
Format/Info : Audio Coding 3
Mode extension : CM (complete main)
Format settings, Endianness : Big
Codec ID : A_AC3
Duration : 1h 54mn
Bit rate mode : Constant
Bit rate : 384 Kbps
Channel(s) : 6 channels
Channel positions : Front: L C R, Side: L R, LFE
Sampling rate : 48.0 KHz
Bit depth : 16 bits
Compression mode : Lossy
Stream size : 314 MiB (6%)
Language : English
Default : No
Forced : No

Audio #2
ID : 5
Format : AC-3
Format/Info : Audio Coding 3
Mode extension : CM (complete main)
Format settings, Endianness : Big
Codec ID : A_AC3
Duration : 1h 54mn
Bit rate mode : Constant
Bit rate : 448 Kbps
Channel(s) : 2 channels
Channel positions : Front: L R
Sampling rate : 48.0 KHz
Bit depth : 16 bits
Compression mode : Lossy
Stream size : 366 MiB (8%)
Language : Spanish
Default : Yes
Forced : No

Text #1
ID : 3
Format : UTF-8
Codec ID : S_TEXT/UTF8
Codec ID/Info : UTF-8 Plain Text
Language : English
Default : No
Forced : No

Text #2
ID : 4
Format : UTF-8
Codec ID : S_TEXT/UTF8
Codec ID/Info : UTF-8 Plain Text
Language : Spanish
Default : No
Forced : No

Capturas:







Descarga(Uploaded.to + cloudzer.net):

Uploaded.to:


Código:
http://***********.net/file/p4mn9h28/La_Ventan%20720p.mkv.7z.001

http://***********.net/file/snxxdmf6/La_Ventan%20720p.mkv.7z.002

http://***********.net/file/wzjm13z1/La_Ventan%20720p.mkv.7z.003

http://***********.net/file/wah2jusx/La_Ventan%20720p.mkv.7z.004

http://***********.net/file/5v5t4l1z/La_Ventan%20720p.mkv.7z.005

http://***********.net/file/yd343tsb/La_Ventan%20720p.mkv.7z.006

Cloudzer:


Código:
http://cloudzer.net/file/o3ead5ia/La_Ventan%20720p.mkv.7z.001

http://cloudzer.net/file/1pir7nfq/La_Ventan%20720p.mkv.7z.002

http://cloudzer.net/file/gxoph3li/La_Ventan%20720p.mkv.7z.003

http://cloudzer.net/file/y37yucxq/La_Ventan%20720p.mkv.7z.004

http://cloudzer.net/file/b4zbyqen/La_Ventan%20720p.mkv.7z.005

http://cloudzer.net/file/feacpps4/La_Ventan%20720p.mkv.7z.006

La ventana indiscreta 720p, Microhd, AC3 2.0 Cast Ac3 5.1 Eng, Intriga, 1954, Online Descargar Gratis DVDRip latino descargar full HD, 1 link, dvdrip, HDRip, por putlocker, mediafire, MEGA, y torrent, rmvb, en español latino, castellano, subtitulada, AVI

Evil Dead 3 MicroHD, 1080p, AC3 5.1 Cast Eng+Subs, 1992, Terror, Online Descargar Gratis DVDRip latino

Evil Dead 3 MicroHD, 1080p, AC3 5.1 Cast Eng+Subs, 1992, Terror, Online Descargar Gratis DVDRip latino descargar full HD, 1 link, dvdrip, HDRip, por putlocker, mediafire, MEGA, y torrent, rmvb, en español latino, castellano, subtitulada, AVI


Título original
Army of Darkness (Evil Dead 3) (Army of Darkness: Evil Dead III)
Año
1992
Duración
83 min.
País
[Estados Unidos] Estados Unidos
Director
Sam Raimi
Guión
Sam Raimi, Ivan Raimi
Música
Joseph LoDuca (Tema: Danny Elfman)
Fotografía
Bill Pope
Reparto
Bruce Campbell, Embeth Davidtz, Bridget Fonda, Marcus Gilbert, Ian Abercrombie, Richard Grove, Timothy Patrick Quill, Michael Earl Reid, Bridget Fonda, Patricia Tallman, Ted Raimi
Productora
Dino de Laurentiis Communications presents a Reinaissance Picture production
Género
Aventuras. Fantástico. Terror. Comedia. Acción. Romance | Secuela. Viajes en el tiempo. Siglo XIII. Edad Media. Posesiones/Exorcismos. Comedia de terror. Película de culto
Sinopsis
Inglaterra, siglo XIII. Las fuerzas del Mal ejercen su reinado en la Edad Media. Valerosos caballeros se disponen a entrar en desigual batalla, mientras los atemorizados campesinos se refugian tras los muros del castillo. Todo cambia con la inesperada llegada de un nuevo héroe, provisto de sofisticadas armas y que dice provenir del siglo XX. (FILMAFFINITY)

Mediainfo:


Código:
General
Format : Matroska
Format version : Version 4 / Version 2
File size : 3.44 GiB
Duration : 1h 36mn
Overall bit rate : 5 381 Kbps
Movie name : El Ejercito de las Tinieblas
Encoded date : UTC 2013-07-17 14:17:36
Writing application : mkvmerge v6.2.0 (‘Promised Land’) built on Apr 28 2013 12:22:01
Writing library : libebml v1.3.0 + libmatroska v1.4.0

Video
ID : 1
Format : AVC
Format/Info : Advanced Video Codec
Format profile : [email protected]
Format settings, CABAC : Yes
Format settings, ReFrames : 4 frames
Codec ID : V_MPEG4/ISO/AVC
Duration : 1h 36mn
Bit rate : 4 237 Kbps
Width : 1 920 pixels
Height : 1 080 pixels
Display aspect ratio : 16:9
Frame rate mode : Constant
Frame rate : 23.976 fps
Color space : YUV
Chroma subsampling : 4:2:0
Bit depth : 8 bits
Scan type : Progressive
Bits/(Pixel*Frame) : 0.090
Stream size : 2.94 GiB (85%)
Title : El Ejercito de las Tinieblas
Writing library : x264 core 130 r2273 b3065e6
Encoding settings : cabac=1 / ref=3 / deblock=1:0:0 / analyse=0x3:0x133 / me=umh / subme=10 / psy=1 / psy_rd=1.00:0.15 / mixed_ref=1 / me_range=16 / chroma_me=1 / trellis=2 / 8x8dct=1 / cqm=0 / deadzone=21,11 / fast_pskip=1 / chroma_qp_offset=-3 / threads=12 / lookahead_threads=1 / sliced_threads=0 / nr=0 / decimate=1 / interlaced=0 / bluray_compat=0 / constrained_intra=0 / bframes=3 / b_pyramid=2 / b_adapt=2 / b_bias=0 / direct=3 / weightb=1 / open_gop=0 / weightp=2 / keyint=240 / keyint_min=23 / scenecut=40 / intra_refresh=0 / rc_lookahead=60 / rc=2pass / mbtree=1 / bitrate=4471 / ratetol=1.0 / qcomp=0.60 / qpmin=0 / qpmax=69 / qpstep=4 / cplxblur=20.0 / qblur=0.5 / ip_ratio=1.40 / aq=1:1.00
Language : English
Default : Yes
Forced : No

Audio #1
ID : 2
Format : AC-3
Format/Info : Audio Coding 3
Mode extension : CM (complete main)
Format settings, Endianness : Big
Codec ID : A_AC3
Duration : 1h 36mn
Bit rate mode : Constant
Bit rate : 192 Kbps
Channel(s) : 2 channels
Channel positions : Front: L R
Sampling rate : 48.0 KHz
Bit depth : 16 bits
Compression mode : Lossy
Delay relative to video : 28ms
Stream size : 132 MiB (4%)
Title : Ac3 5.1 Castellano
Language : Spanish
Default : Yes
Forced : No

Audio #2
ID : 5
Format : AC-3
Format/Info : Audio Coding 3
Mode extension : CM (complete main)
Format settings, Endianness : Big
Codec ID : A_AC3
Duration : 1h 36mn
Bit rate mode : Constant
Bit rate : 448 Kbps
Channel(s) : 6 channels
Channel positions : Front: L C R, Side: L R, LFE
Sampling rate : 48.0 KHz
Bit depth : 16 bits
Compression mode : Lossy
Stream size : 309 MiB (9%)
Title : AC3 5.1 Ingles
Language : English
Default : No
Forced : No

Text #1
ID : 3
Format : UTF-8
Codec ID : S_TEXT/UTF8
Codec ID/Info : UTF-8 Plain Text
Title : Subtitulos Forzados Castellano
Language : Spanish
Default : No
Forced : Yes

Text #2
ID : 4
Format : UTF-8
Codec ID : S_TEXT/UTF8
Codec ID/Info : UTF-8 Plain Text
Title : Subtitulos Completos Castellano
Language : Spanish
Default : No
Forced : No

Text #3
ID : 6
Format : UTF-8
Codec ID : S_TEXT/UTF8
Codec ID/Info : UTF-8 Plain Text
Title : Subtitulos Ingles
Language : English
Default : No
Forced : No

Text #4
ID : 7
Format : UTF-8
Codec ID : S_TEXT/UTF8
Codec ID/Info : UTF-8 Plain Text
Title : sub.forz.es
Language : Spanish
Default : Yes
Forced : Yes

Capturas:







Descarga(Uploaded.to + cloudzer.net):

Uploaded:


Código:
http://***********.net/file/sfwb73wq/Posesion%203%20Microhd%201080p.mkv.7z.001

http://***********.net/file/p43sex74/Posesion%203%20Microhd%201080p.mkv.7z.002

http://***********.net/file/ym158xt9/Posesion%203%20Microhd%201080p.mkv.7z.003

http://***********.net/file/fqniq3q0/Posesion%203%20Microhd%201080p.mkv.7z.004

Cloudzer:


Código:
http://cloudzer.net/file/w1uoitk6/Posesion%203%20Microhd%201080p.mkv.7z.001

http://cloudzer.net/file/1rexdyhf/Posesion%203%20Microhd%201080p.mkv.7z.002

http://cloudzer.net/file/8rgmpbas/Posesion%203%20Microhd%201080p.mkv.7z.003

http://cloudzer.net/file/1w9tdtmb/Posesion%203%20Microhd%201080p.mkv.7z.004

Evil Dead 3 MicroHD, 1080p, AC3 5.1 Cast Eng+Subs, 1992, Terror, Online Descargar Gratis DVDRip latino descargar full HD, 1 link, dvdrip, HDRip, por putlocker, mediafire, MEGA, y torrent, rmvb, en español latino, castellano, subtitulada, AVI