descargar Oblivion (2013) BRScrener 720 , castellano HQ, Ciencia Ficción, gratis Online Descargar Gratis dvdrip

descargar Oblivion (2013) BRScrener 720 , castellano HQ, Ciencia Ficción, gratis Online Descargar Gratis dvdrip descargar 1 link gratis, descargar putlocker, full HD, rmvb, dvdrip, español latino castellano, torrent, mediafire, mf, 1080p, 720p, MEGA, subtitulada







Título: Oblivion
Título original: Oblivion
Dirección: Joseph Kosinski
País: Estados Unidos
Año: 2013
Fecha de estreno: 12/04/2013
Duración: 126 min
Género: Thriller, Acción, Ciencia ficción
Calificación: No recomendada para menores de 12 años
Reparto: Tom Cruise, Morgan Freeman, Nikolaj Coster-Waldau, Olga Kurylenko, Zoe Bell, Andrea Riseborough, Melissa Leo, Catherine Kim Poon, James Rawlings, Lindsay Clift
Guión: Michael Arndt, Joseph Kosinski, Karl Gajdusek
Web: www.oblivionmovie.com
Distribuidora: Universal Pictures
Productora: Universal Pictures, Chernin Entertainment, Ironhead Studios, Radical Pictures, Truenorth Productions

Jack Harper es uno de los últimos mecánicos de aviones no tripulados destinados a la Tierra. Forma parte de una enorme operación dirigida a extraer recursos vitales después de décadas en guerra con la aterradora amenaza que representan los Scavs. Pero la misión de Jack toca a su fin. Recorre y patrulla el cielo a miles de metros de altura hasta que su “elevada” existencia se derrumba cuando rescata a una preciosa desconocida de una nave derribada. Su llegada pone en marcha una serie de acontecimientos que obligarán a Jack a cuestionarse todo lo que sabe y que acabarán poniendo el destino de la raza humana en sus manos.







(Subs Coreanos Incrustados)
idioma: Castellano MIC HQ
peso: 2,5 GB
calidad: BDrip-720 litte

http://d.dvdripelis.co/decode.php?h=aHR0cDovL3Bhc3RlYmluLmNvbS8wZ1F6ZlJGeg==


(Subs Coreanos Incrustados)
idioma: Castellano MIC HQ
peso: 3,27 GB
calidad: BDrip-720

http://d.dvdripelis.co/decode.php?h=aHR0cDovL3Bhc3RlYmluLmNvbS9aR3VKanRSNQ==


mediainfo:


Spoiler



********
Complete name : Oblivion.brs.720.xtuca.mkv
Format : Matroska
Format version : Version 2
File size : 3.27 GiB
Duration : 2h 4mn
Overall bit rate : 3 762 Kbps
Movie name : riper xtuca
Encoded date : UTC 2013-07-21 17:06:13
Writing application : mkvmerge v5.8.0 (‘No Sleep / Pillow’) built on Sep 2 2012 15:37:04
Writing library : libebml v1.2.3 + libmatroska v1.3.0

Video
ID : 1
Format : AVC
Format/Info : Advanced Video Codec
Format profile : [email protected]
Format settings, CABAC : Yes
Format settings, ReFrames : 5 frames
Muxing mode : Header stripping
Codec ID : V_MPEG4/ISO/AVC
Duration : 2h 4mn
Bit rate : 3 559 Kbps
Width : 1 280 pixels
Height : 720 pixels
Display aspect ratio : 16:9
Frame rate mode : Constant
Frame rate : 29.557 fps
Color space : YUV
Chroma subsampling : 4:2:0
Bit depth : 8 bits
Scan type : Progressive
Bits/(Pixel*Frame) : 0.131
Stream size : 3.10 GiB (95%)
Title : Making by 治祐韓彬 ☞ N.E.T.ism
Language : English
Default : Yes
Forced : No

Audio
ID : 2
Format : MPEG Audio
Format version : Version 1
Format profile : Layer 3
Mode : Joint stereo
Mode extension : MS Stereo
Muxing mode : Header stripping
Codec ID : A_MPEG/L3
Codec ID/Hint : MP3
Duration : 2h 4mn
Bit rate mode : Constant
Bit rate : 128 Kbps
Channel(s) : 2 channels
Sampling rate : 44.1 KHz
Compression mode : Lossy
Stream size : 114 MiB (3%)
Language : Spanish
Default : Yes
Forced : No
*********


MEDIAINFO:



Spoiler


********
Complete name : Oblivion.brs.720.lite.xtuca.mkv
Format : Matroska
Format version : Version 2
File size : 2.50 GiB
Duration : 2h 4mn
Overall bit rate : 2 869 Kbps
Encoded date : UTC 2013-07-21 17:18:44
Writing application : mkvmerge v5.8.0 (‘No Sleep / Pillow’) built on Sep 2 2012 15:37:04
Writing library : libebml v1.2.3 + libmatroska v1.3.0

Video
ID : 1
Format : AVC
Format/Info : Advanced Video Codec
Format profile : [email protected]
Format settings, CABAC : Yes
Format settings, ReFrames : 4 frames
Muxing mode : Header stripping
Codec ID : V_MPEG4/ISO/AVC
Duration : 2h 4mn
Bit rate : 2 750 Kbps
Width : 1 280 pixels
Height : 720 pixels
Display aspect ratio : 16:9
Frame rate mode : Constant
Frame rate : 29.557 fps
Original frame rate : 29.554 fps
Color space : YUV
Chroma subsampling : 4:2:0
Bit depth : 8 bits
Scan type : Progressive
Bits/(Pixel*Frame) : 0.101
Stream size : 2.34 GiB (94%)
Writing library : x264 core 125 r2200bm 999b753
Encoding settings : cabac=1 / ref=3 / deblock=1:-1:-1 / analyse=0x3:0x113 / me=hex / subme=7 / psy=1 / psy_rd=1.00:0.15 / mixed_ref=1 / me_range=16 / chroma_me=1 / trellis=1 / 8x8dct=1 / cqm=0 / deadzone=21,11 / fast_pskip=1 / chroma_qp_offset=-3 / threads=3 / lookahead_threads=1 / sliced_threads=0 / nr=0 / decimate=1 / interlaced=0 / bluray_compat=0 / constrained_intra=0 / bframes=3 / b_pyramid=2 / b_adapt=1 / b_bias=0 / direct=1 / weightb=1 / open_gop=0 / weightp=2 / keyint=250 / keyint_min=25 / scenecut=40 / intra_refresh=0 / rc_lookahead=40 / rc=abr / mbtree=1 / bitrate=2750 / ratetol=1.0 / qcomp=0.60 / qpmin=0 / qpmax=69 / qpstep=4 / ip_ratio=1.40 / aq=1:1.00
Default : Yes
Forced : No

Audio
ID : 2
Format : MPEG Audio
Format version : Version 1
Format profile : Layer 3
Mode : Joint stereo
Mode extension : MS Stereo
Muxing mode : Header stripping
Codec ID : A_MPEG/L3
Codec ID/Hint : MP3
Duration : 2h 4mn
Bit rate mode : Constant
Bit rate : 128 Kbps
Channel(s) : 2 channels
Sampling rate : 44.1 KHz
Compression mode : Lossy
Stream size : 114 MiB (4%)
Default : Yes
Forced : No



*********







95 % enlaces free mixtos



ENLACES AQUI SIEMPRE ACTIVOS

peso: 2,5 GB
calidad: BDrip-720 litte

http://d.dvdripelis.co/decode.php?h=aHR0cDovL3Bhc3RlYmluLmNvbS8wZ1F6ZlJGeg==


peso: 3,27 GB
calidad: BDrip-720


http://d.dvdripelis.co/decode.php?h=aHR0cDovL3Bhc3RlYmluLmNvbS9aR3VKanRSNQ==

Descargar con JDownloader,si no lo teneis,lo podeis pillar de aqui

http://d.dvdripelis.co/decode.php?h=aHR0cDovL3Bhc3RlYmluLmNvbS9wcDRZR3NjMQ==


Si quieres bajar a toda velocidad compra una premiun en cualquiera de mis enlaces




descargar Oblivion (2013) BRScrener 720 , castellano HQ, Ciencia Ficción, gratis Online Descargar Gratis dvdrip descargar 1 link gratis, descargar putlocker, full HD, rmvb, dvdrip, español latino castellano, torrent, mediafire, mf, 1080p, 720p, MEGA, subtitulada

Deja un comentario