Iron Man 3 2013, Latino, Ts Screener , Acción, 1 Link, 2 Host, Descargar Gratis dvdrip


Iron Man 3 2013, Latino, Ts Screener , Acción, 1 Link, 2 Host, Descargar Gratis dvdrip descarga directa, full HD, 1 link, castellano y español latino, rmvb, 1080p, bluray, torrent, rapidshare, MEGA, mf




Sinopsis

En “Iron Man 3″ de Marvel, el descarado pero brillante empresario Tony Stark/Iron Man se enfrentará a un enemigo cuyo poder no conoce límites. Cuando Stark comprende que su enemigo ha destruido su universo personal, se embarca en una angustiosa búsqueda para encontrar a los responsables. Este viaje pondrá a prueba su entereza una y otra vez. Acorralado, Stark tendrá que sobrevivir por sus propios medios, confiando en su ingenio y su instinto para proteger a las personas que quiere. Durante su lucha, Stark conocerá la respuesta a la pregunta que le atormenta en secreto: ¿El hábito hace al monje o es al contrario?

Información


VER TRAILER AQUÍ

Año: 2013
Duración: 130 min
Género: Superhéroe, Ciencia ficción, Acción
Título Original: Iron Man 3

Reparto:
Robert Downey Jr.,Guy Pearce,Gwyneth Paltrow,Paul Bettany,Ben Kingsley,Jon Favreau,Rebecca Hall,Don Cheadle,William Sadler,James Badge Dale,Stan Lee,Stephanie Szostak,Dale Dickey,Yvonne Zima,Ashley Hamilton

Ficha técnica



Código:
Format                                   : MPEG-4
Format profile : Base Media
Codec ID : isom
File size : 394 MiB
Duration : 1h 58mn
Overall bit rate mode : Variable
Overall bit rate : 464 Kbps
Writing application : Lavf54.59.106

Video
ID : 1
Format : AVC
Format/Info : Advanced Video Codec
Format profile : [email protected]
Format settings, CABAC : No
Format settings, ReFrames : 3 frames
Codec ID : avc1
Codec ID/Info : Advanced Video Coding
Duration : 1h 58mn
Bit rate : 340 Kbps
Width : 640 pixels
Height : 270 pixels
Display aspect ratio : 2.40:1
Frame rate mode : Constant
Frame rate : 25.000 fps
Color space : YUV
Chroma subsampling : 4:2:0
Bit depth : 8 bits
Scan type : Progressive
Bits/(Pixel*Frame) : 0.079
Stream size : 289 MiB (73%)
Writing library : x264 core 129
Encoding settings : cabac=0 / ref=3 / deblock=1:0:0 / analyse=0×1:0×111 / me=hex / subme=7 / psy=1 / psy_rd=1.00:0.00 / mixed_ref=1 / me_range=16 / chroma_me=1 / trellis=1 / 8x8dct=0 / cqm=0 / deadzone=21,11 / fast_pskip=1 / chroma_qp_offset=-2 / threads=24 / lookahead_threads=4 / sliced_threads=0 / nr=0 / decimate=1 / interlaced=0 / bluray_compat=0 / constrained_intra=0 / bframes=0 / weightp=0 / keyint=250 / keyint_min=25 / scenecut=40 / intra_refresh=0 / rc_lookahead=40 / rc=abr / mbtree=1 / bitrate=340 / ratetol=1.0 / qcomp=0.60 / qpmin=0 / qpmax=69 / qpstep=4 / vbv_maxrate=10000 / vbv_bufsize=10000 / nal_hrd=none / ip_ratio=1.40 / aq=1:1.00
Language : English

Audio
ID : 2
Format : AAC
Format/Info : Advanced Audio Codec
Format profile : LC
Codec ID : 40
Duration : 1h 58mn
Bit rate mode : Variable
Bit rate : 118 Kbps
Maximum bit rate : 10 000 Kbps
Channel(s) : 2 channels
Channel positions : Front: L R
Sampling rate : 44.1 KHz
Compression mode : Lossy
Stream size : 100 MiB (25%)
Language : English

Capturas



Descargar

http://d.dvdripelis.co/decode.php?h=aHR0cDovL2dvbGRwYXN0ZS51cy9wYXN0ZS1HaVdwNHJsZg==
Iron Man 3 2013, Latino, Ts Screener , Acción, 1 Link, 2 Host, Descargar Gratis dvdrip descarga directa, full HD, 1 link, castellano y español latino, rmvb, 1080p, bluray, torrent, rapidshare, MEGA, mf


    - iron man 3 dvd screener

Deja un comentario