Jet Li : Flying Swords of Dragon Gate 2011, Sub. Esp Descargar Gratis ver online

Jet Li : Flying Swords of Dragon Gate 2011, Sub. Esp Descargar Gratis ver online castellano y español latino, full HD, descargar en 1 link gratis, descargar directa, descargar dvdrip, torrent, mf, mediafire, putlocker, subtitulada








FICHA TECNICA
TÍTULO ORIGINAL: Flying Swords of Dragon Gate
AÑO: 2011
DURACIÓN: min.
PAÍS: Hong Kong
DIRECTOR: Tsui Hark
REPARTO: Jet Li, Chen Kun, Zhou Xun, Fan Siu-wong, Kwai Lun-mei, Mavis Fan, Li Yu-chun
GÉNERO: Acción | Artes marciales. Remake. 3-D



“Flying Swords of Dragon Gate” es un wu-xia protagonizado por Jet Li en el que se nos narra al historia de Chow Wai-on, un rebelde que lucha contra Tsao Sui San, el malvado líder eunuco del Lado Este, que intenta forjar su propio reino mediante la destrucción de los clanes rebeldes. La acción les llevará al desierto, en la posada de la “Puerta del Dragón”, propiedad de Jade , interpretada por Zhou Xun (The Message). La película, que llegará a finales de 2011 a los de toda China, es un remake de la película de 1992, “New Dragon Gate Inn” de Raymond Lee, que a su vez era un remake del clásico de 1967 de King Hu, Dragon Inn.








ID : 224 (0xE0)
Format : MPEG Video
Format version : Version 1
Format settings, BVOP : Yes
Format settings, Matrix : Default
Duration : 2h 1mn
Bit rate mode : Variable
Bit rate : 734 Kbps
Width : 352 pixels
Height : 240 pixels
Display aspect ratio : 3:2
Frame rate : 29.970 fps
Standard : NTSC
Color space : YUV
Bit depth : 8 bits
Scan type : Progressive
Compression mode : Lossy
Bits/(Pixel*Frame) : 0.290
Stream size : 639 MiB (83%)
Writing library : TMPGEnc 4.7.6.304

Audio
ID : 192 (0xC0)
Format : MPEG Audio
Format version : Version 1
Format profile : Layer 2
Duration : 2h 1mn
Bit rate mode : Constant
Bit rate : 128 Kbps
Channel(s) : 2 channels
Sampling rate : 32.0 KHz
Compression mode : Lossy
Stream size : 111 MiB (15%)









Código:
http://***********.com/files/rz0ygwy1/flyng202011.mpg.html









Código:
http://www.***********.com/file/RDkmJSf









Código:
http://***********/9qlu05oq








Jet Li : Flying Swords of Dragon Gate 2011, Sub. Esp Descargar Gratis ver online castellano y español latino, full HD, descargar en 1 link gratis, descargar directa, descargar dvdrip, torrent, mf, mediafire, putlocker, subtitulada

Deja un comentario