Naruto Shippuden Pelicula 6: El camino ninja 2012 Dvdrip Subtitulada Descargar Gratis Español Latino


^^^Descargar Naruto Shippuden Pelicula 6: El camino ninja 2012 Dvdrip Subtitulada Descargar Gratis Español Latino^^^

Naruto Shippuden Pelicula 6: El camino ninja 2012 Dvdrip Subtitulada Descargar Gratis Español Latino descarga directa, dvdrip, audio español latino, castellano, rmvb, ver online, bluray, rapidshare, mediafire, torrent






La película se basa en una realidad alterna del universo de Naruto, en la que él nunca perdió a sus padres, y Tobi, (el villano enmascarado), lleva a cabo su plan “Ojo de Luna” para gobernar el mundo, sumiéndolo bajo una ilusión. En esta película los personajes como Sasuke Uchiha tiene una personalidad más agradable y gentil, además de que le gusta Sakura Haruno.



Genero : ComediasAventuraAnimacion
Directores : Hayato Date
Escritores : Yuka Miyata (Historia: Masashi Kishimoto)
Reparto : ???


Audio:
Formato: MP4
Duración: 1h 45mn
Peso: 377 MB

Mediainfo



Código:
Format                                   : MPEG-4
Format profile : Base Media
Codec ID : isom
File size : 377 MiB
Duration : 1h 45mn
Overall bit rate mode : Variable
Overall bit rate : 501 Kbps
Encoded date : UTC 2013-04-04 02:55:38
Tagged date : UTC 2013-04-04 02:55:38

Video
ID : 1
Format : AVC
Format/Info : Advanced Video Codec
Format profile : [email protected]
Format settings, CABAC : Yes
Format settings, ReFrames : 4 frames
Codec ID : avc1
Codec ID/Info : Advanced Video Coding
Duration : 1h 45mn
Bit rate : 499 Kbps
Maximum bit rate : 2 556 Kbps
Width : 640 pixels
Height : 358 pixels
Display aspect ratio : 16:9
Frame rate mode : Constant
Frame rate : 25.000 fps
Color space : YUV
Chroma subsampling : 4:2:0
Bit depth : 8 bits
Scan type : Progressive
Bits/(Pixel*Frame) : 0.087
Stream size : 375 MiB (100%)
Title : 264#trackID=1:fps=[email protected]
Writing library : x264 core 130 r2273 b3065e6
Encoding settings : cabac=1 / ref=4 / deblock=1:1:1 / analyse=0×3:0×113 / me=hex / subme=4 / psy=1 / psy_rd=1.00:0.00 / mixed_ref=1 / me_range=16 / chroma_me=1 / trellis=0 / 8x8dct=1 / cqm=0 / deadzone=21,11 / fast_pskip=1 / chroma_qp_offset=0 / threads=12 / lookahead_threads=2 / sliced_threads=0 / nr=0 / decimate=1 / interlaced=0 / bluray_compat=0 / constrained_intra=0 / bframes=3 / b_pyramid=2 / b_adapt=1 / b_bias=0 / direct=3 / weightb=0 / open_gop=0 / weightp=2 / keyint=250 / keyint_min=25 / scenecut=40 / intra_refresh=0 / rc_lookahead=40 / rc=2pass / mbtree=1 / bitrate=499 / ratetol=1.0 / qcomp=0.60 / qpmin=10 / qpmax=51 / qpstep=4 / cplxblur=20.0 / qblur=0.5 / vbv_maxrate=50000 / vbv_bufsize=50000 / nal_hrd=none / ip_ratio=1.40 / aq=1:0.00
Encoded date : UTC 2013-04-04 02:55:38
Tagged date : UTC 2013-04-04 02:55:43

Audio
ID : 2
Format : AAC
Format/Info : Advanced Audio Codec
Format profile : HE-AAC / LC
Codec ID : 40
Duration : 10s 123ms
Bit rate mode : Variable
Bit rate : 64.1 Kbps
Maximum bit rate : 70.6 Kbps
Channel(s) : 2 channels
Channel positions : Front: L R
Sampling rate : 44.1 KHz / 22.05 KHz
Compression mode : Lossy
Stream size : 79.3 KiB (0%)
Encoded date : UTC 2013-04-04 02:40:30
Tagged date : UTC 2013-04-04 02:55:43







http://d.dvdripelis.co/decode.php?h=aHR0cDovL2dvbGRwYXN0ZS51cy9wYXN0ZS1HU0V2THNWaA==
Naruto Shippuden Pelicula 6: El camino ninja 2012 Dvdrip Subtitulada Descargar Gratis Español Latino descarga directa, dvdrip, audio español latino, castellano, rmvb, ver online, bluray, rapidshare, mediafire, torrent

    , naruto shippuden pelicula 6 camino ninja sub español descargar, descargar naruto shippuden road to ninja sub español mp4, naruto shippuden el camino ninja sub español dvdrip

Deja un comentario