Ong Bak 3 (2013) (DVDRip) (Castellano) (Acción, Artes Marciales) dvdrip


^^^Descargar Ong Bak 3 (2013) (DVDRip) (Castellano) (Acción, Artes Marciales) dvdrip^^^

Ong Bak 3 (2013) (DVDRip) (Castellano) (Acción, Artes Marciales) dvdrip descargar 1 link, rmvb, castellano, español latino, ver online, dvdrip, torrent, rapidshare, mediafire, mf, mega






La leyenda de Ong Bak 3 comienza cuando Tien (Tony Jaa) pierde sus habilidades para luchar y a su apreciado padrastro en el acantilado Garuda’s Wing en un ataque liderado por Jom Rachan. Tien vuelve a la vida con la ayuda de Pim, de Mhen y de los habitantes de Kana Khone. Con las enseñanzas de Phra Bua sobre la meditación profunda, Tien por fin consigue alcanzar el ‘Nathayut’. Su talento vuelve a ser puesto a prueba cuando sus rivales, incluyendo al guardia de la armadura de oro del rey, los misteriosos asesinos de negro y Bhuti Sangkha, vuelven para el enfrentamiento final.



Título:
Título original: Ong Bak 3
País: Tailandia
Estreno en USA: 07/01/2011
Estreno en España:
Lanzamiento en DVD (alquiler): 03/04/2013
Productora: Magnolia Pictures
Director: Tony Jaa, Panna Rittikrai
Guión: Tony Jaa, Panna Rittikrai
Reparto: Tony Jaa, Saranyu Wonggrajang, Primrata Dechudom, Petchai Wongkamlao, Nirutti Sirijanya, Supakorn ‘Tok’ Kijusuwan, Dan Chupong.

MEDIAINFO:



código:
Format                                   : AVI
Format/Info : Audio Video Interleave
File size : 1.69 GiB
Duration : 1h 38mn
Overall bit rate : 2 456 Kbps
Movie name : Ong Bak 3 [www.newpct.com]
Subject : Ong Bak 3 [www.newpct.com]
Writing application : VirtualDubMod 1.5.10.2 (build 2540/release)
Writing library : VirtualDubMod build 2540/release

Video
ID : 0
Format : MPEG-4 Visual
Format settings, BVOP : No
Format settings, QPel : No
Format settings, GMC : No warppoints
Format settings, Matrix : Default (H.263)
Codec ID : DX50
Codec ID/Hint : DivX 5
Duration : 1h 38mn
Bit rate : 1 999 Kbps
Width : 720 pixels
Height : 304 pixels
Display aspect ratio : 2.35:1
Frame rate : 25.000 fps
Color space : YUV
Chroma subsampling : 4:2:0
Bit depth : 8 bits
Scan type : Progressive
Compression mode : Lossy
Bits/(Pixel*Frame) : 0.365
Stream size : 1.38 GiB (81%)
Writing library : DivX 3013

Audio
ID : 1
Format : AC-3
Format/Info : Audio Coding 3
Mode extension : CM (complete main)
Format settings, Endianness : Big
Codec ID : 2000
Duration : 1h 38mn
Bit rate mode : Constant
Bit rate : 448 Kbps
Channel(s) : 6 channels
Channel positions : Front: L C R, Side: L R, LFE
Sampling rate : 48.0 KHz
Bit depth : 16 bits
Compression mode : Lossy
Stream size : 316 MiB (18%)
Alignment : Split accross interleaves
Interleave, duration : 40 ms (1.00 video frame)
Interleave, preload duration : 500 ms


















Ong Bak 3 (2013) (DVDRip) (Castellano) (Acción, Artes Marciales) dvdrip descargar 1 link, rmvb, castellano, español latino, ver online, dvdrip, torrent, rapidshare, mediafire, mf, mega

Deja un comentario