Tipos legales BRScreener HQ, Castellano MIC SCR HQ, Comedia, Acción, 2012, VS, Descargar Gratis full HD


Tipos legales BRScreener HQ, Castellano MIC SCR HQ, Comedia, Acción, 2012, VS, Descargar Gratis full HD descarga directa, full HD, 1 link, castellano y español latino, rmvb, 1080p, bluray, torrent, rapidshare, MEGA, mf










Cita:




Título original
Stand Up Guys
Año
2012
Duración
95 min.
País
Estados Unidos
Director
Fisher Stevens
Guión
Noah Haidle
Música
Lyle Workman
Fotografía
Michael Grady
Reparto
Al Pacino, Christopher Walken, Alan Arkin, Julianna Margulies, Mark Margolis, Lucy Punch, Vanessa Ferlito, Addison Timlin, Bill Burr, Katheryn Winnick
Productora
Lionsgate / Sidney Kimmel Entertainment / Lakeshore Entertainment
Género
Comedia. Acción | Vejez. Amistad. Mafia
Web Oficial
http://d.dvdripelis.co/decode.php?h=aHR0cDovL3d3dy5zdGFuZHVwZ3V5c2ZpbG0uY29tLw==
Sinopsis
Val (Al Pacino) sale de la cárcel tras cumplir 28 años de condena. Doc (Christopher Walken), su mejor amigo, le espera a la salida para ir a ver a Hirsch (Alan Arkin), otro viejo colega. A pesar de la edad, los tres gángsteres deciden reanudar esa misma noche su vida de crímenes, drogas y sexo. Sin embargo, Doc tiene que hacer antes un trabajo urgente que le ha encargado el jefe de la banda: debe matar a Val para saldar una cuenta pendiente. El dilema es peliagudo, y dispone de poco tiempo para resolverlo. (FILMAFFINITY)






Cita:




General

Format : AVI
Format/Info : Audio Video Interleave
File size : 1.37 GiB
Duration : 1h 34mn
Overall bit rate : 2 059 Kbps
Writing application : VirtualDubMod 1.5.10.3 | www.virtualdub-fr.org || (build 2550/release)
Writing library : VirtualDubMod build 2550/release

Video
ID : 0
Format : MPEG-4 Visual
Format profile : Advanced Simple@L5
Format settings, BVOP : 2
Format settings, QPel : No
Format settings, GMC : No warppoints
Format settings, Matrix : Default (H.263)
Codec ID : XVID
Codec ID/Hint : XviD
Duration : 1h 34mn
Bit rate : 1 890 Kbps
Width : 720 pixels
Height : 304 pixels
Display aspect ratio : 2.35:1
Frame rate : 23.976 fps
Color space : YUV
Chroma subsampling : 4:2:0
Bit depth : 8 bits
Scan type : Progressive
Compression mode : Lossy
Bits/(Pixel*Frame) : 0.360
Stream size : 1.25 GiB (92%)
Writing library : XviD 1.2.1 (UTC 2008-12-04)

Audio
ID : 1
Format : MPEG Audio
Format version : Version 1
Format profile : Layer 3
Mode : Joint stereo
Mode extension : MS Stereo
Codec ID : 55
Codec ID/Hint : MP3
Duration : 1h 34mn
Bit rate mode : Constant
Bit rate : 160 Kbps
Channel(s) : 2 channels
Sampling rate : 48.0 KHz
Compression mode : Lossy
Stream size : 109 MiB (8%)
Alignment : Aligned on interleaves
Interleave, duration : 42 ms (1.00 video frame)
Interleave, preload duration : 504 ms



LINKS INTERCAMBIABLES


*EL MEJOR*


Código:
http://www.HenchFile.com/qs3qxhklntwd

http://www.HenchFile.com/beeviuuch1lh

http://www.HenchFile.com/lvk2k3sfbws4





Código:
http://ufox.com/50iyn9061cv4

http://ufox.com/cmu7hxg13dwz

http://ufox.com/r1epcbkkh49h





Código:
http://***********/iyx7p22v

http://***********/c3b3ylxo

http://***********/5hgakrrt






Código:
http://www.putlocker.com/file/F3BC9ECF0BD07D86

http://www.putlocker.com/file/B408C8EBFD03E716

http://www.HenchFile.com/qs3qxhklntwd





Código:
http://www.henchfile.com/b1et2hgmst7w
Descomprimir con Winrar
Tipos legales BRScreener HQ, Castellano MIC SCR HQ, Comedia, Acción, 2012, VS, Descargar Gratis full HD descarga directa, full HD, 1 link, castellano y español latino, rmvb, 1080p, bluray, torrent, rapidshare, MEGA, mf


Deja un comentario